EduKon.net » Movies » The Tree of Life 2011 BDRip XVID AC3 HQ Hive-CM8

 

The Tree of Life 2011 BDRip XVID AC3 HQ Hive-CM8

Author: mrkei

The Tree of Life 2011 BDRip  XVID AC3 HQ Hive-CM8
The Tree of Life 2011 BDRip XVID AC3 HQ Hive-CM8

Language: English + Subtitles : English
2h 18mn | MKV | 720x384 | 23.976 fps | 384 kb/s | 48.0 KHz | 2.01 GB
Genre: Drama

The impressionistic story of a Texas family in the 1950s. The film follows the life journey of the eldest son, Jack, through the innocence of childhood to his disillusioned adult years.

"The Tree of Life 2011 BDRip XVID AC3 HQ Hive-CM8"

HI-SPEED DOWNLOAD
Free 300 GB with Full DSL-Broadband Speed!



The Tree of Life 2011 BDRip  XVID AC3 HQ Hive-CM8
The Tree of Life 2011 BDRip XVID AC3 HQ Hive-CM8

Language: English + Subtitles : English
2h 18mn | MKV | 720x384 | 23.976 fps | 384 kb/s | 48.0 KHz | 2.01 GB
Genre: Drama

The impressionistic story of a Texas family in the 1950s. The film follows the life journey of the eldest son, Jack, through the innocence of childhood to his disillusioned adult years.

Video: 720x384 @bitrate 1650 2pass
Audio: English DTS to AC3 5.1 @384
Sample: yes included
Subs: yes, english in srt /subs

General
Complete name : The.Tree.of.Life.2011.BDRip.XVID.AC3.HQ.Hive-CM8.avi
Format : AVI
Format/Info : Audio Video Interleave
File size : 1.98 GiB
Duration : 2h 18mn
Overall bit rate : 2 040 Kbps
Writing application : Nandub v1.0rc2
Writing library : Nandub build 1853/release

Video
ID : 0
Format : MPEG-4 Visual
Format profile : Advanced [email protected]
Format settings, BVOP : 1
Format settings, QPel : Yes
Format settings, GMC : No warppoints
Format settings, Matrix : Default (H.263)
Muxing mode : Packed bitstream
Codec ID : XVID
Codec ID/Hint : XviD
Duration : 2h 18mn
Bit rate : 1 647 Kbps
Width : 720 pixels
Height : 384 pixels
Display aspect ratio : 1.850
Frame rate : 23.976 fps
Color space : YUV
Chroma subsampling : 4:2:0
Bit depth : 8 bits
Scan type : Progressive
Compression mode : Lossy
Bits/(Pixel*Frame) : 0.248
Stream size : 1.60 GiB (81%)
Writing library : XviD 1.2.1 (UTC 2008-12-04)

Audio
ID : 1
Format : AC-3
Format/Info : Audio Coding 3
Mode extension : CM (complete main)
Codec ID : 2000
Duration : 2h 18mn
Bit rate mode : Constant
Bit rate : 384 Kbps
Channel(s) : 6 channels
Channel positions : Front: L C R, Side: L R, LFE
Sampling rate : 48.0 KHz
Bit depth : 16 bits
Compression mode : Lossy
Stream size : 382 MiB (19%)
Alignment : Split accross interleaves
Interleave, duration : 42 ms (1.00 video frame)
Interleave, preload duration : 500 ms

Cast:
Brad Pitt ... Mr. O'Brien
Sean Penn ... Jack
Jessica Chastain ... Mrs. O'Brien
Hunter McCracken ... Young Jack

Screenshot
The Tree of Life 2011 BDRip  XVID AC3 HQ Hive-CM8

[quote][center]Buy PREMIUM FileSonic for FAST SPEED !
Download:
[quote]





[/quote]
Mirror 1:
[quote]





[/quote]
Mirror 2:
[quote]





[/quote]
Mirror 3:
[quote]





[/quote]

P A S S W O R D    P R O T E C T E D ! 
PASSWORD WILL BE PUBLISHED HERE TOMORROW!
 PLEASE ADD PAGE TO YOUR FAVORITS

Free 300 GB with 10 GB High-Speed(No Password BACKUP)


Hide Your IP & Protect Your Privacy!
Get Your 15 Day Free Trial Now.

Category: Movies


Tags: the odd life of timothy green 2012 bdrip xvid ac3 hq hive cm8, rio 2011 bdrip xvid ac3 hq hive cm8, killer joe 2011 bdrip xvid ac3 hq hive cm8, hick 2011 bdrip xvid ac3 hq hive cm8, 10 years 2011 bdrip xvid ac3 hq hive cm8, scream 4 2011 bdrip xvid ac3 hq hive

The Tree of Life 2011 BDRip XVID AC3 HQ Hive-CM8 Fast Download via Rapidshare Upload Filehosting Megaupload, The Tree of Life 2011 BDRip XVID AC3 HQ Hive-CM8 Torrents and Emule Download or anything related.
Information
Comment on the news site is possible only within (days) days from the date of publication.